Завещание голубого дядюшки торрент

Название сайта!

Скачать Завещание голубого дядюшки / Deu Veado na Cabeç,a (1982) VHSRip

Название зарубежное: Deu Veado na Cabeç,a

Сценарий: Бентинью, Фернандо Сандовал

Продюсер: Фернандо Сандовал

Оператор: А.Дж. Морейрас

Монтаж: Жаир Гарсиа Дуарте

Перевод: Профессиональный одноголосый (НТВ)

Видео: 1619 Кбит/с, 672x464

Аудио: Португальский (AC3, 2 ch, 192 Кбит/с), русский (МР3, 2 ch, 128 Кбит/с)

Также Вы можете сообщить о проблеме или ошибке и ознакомиться с ответами пользователей.

Посетители, находящиеся в группе Гости, не могут оставлять комментарии к данной публикации.

Завещание голубого дядюшки / Deu Veado na Cabea (1982) VHSRip P1

Информация о фильме

Название: Завещание голубого дядюшки

Оригинальное название: Deu Veado na Cabea

Год выпуска: 1982

Режиссер: Бентинью AKA Жозе Родригес

В ролях: Кармем Анжелика, Мара Кармем, Жука де Оливейра, Лижия ди Паула, Эмерсон Фиттипальди, Эйтор Джайлотти, Джон Херберт, Сержиу Хиншт, Фелипе Леви, Хосе Лукас

Студия: Carrossel Produes Artsticas

Перевод: Профессиональный одноголосый (НТВ)

Видео: 1619 Кбит/с, 672x464

Звук: Португальский (AC3, 2 ch, 192 Кбит/с), русский (МР3, 2 ch, 128 Кбит/с)

Внимание! фильм содержит массу художественно-смысловой нагрузки (т.е., того, чё надо ,-))

Данный ресурс заблокирован!

по решению Роскомнадзора

На основании Постановления Правительства РФ от 26 октября 2012 года 1101 и в соответствии со статьями 9 и 15.1. Федерального закона от 27 июля 2016 года 149-ФЗ «Об информации, информационных технология и защите информации» данный ресурс содержит информацию, распространение которой в Российской Федерации запрещено!

АЛМАТЕЛ ТВ: ТЕПЕРЬ ВЕЗДЕ, ГДЕ ЕСТЬ ИНТЕРНЕТ. ЛЮБОЙ

3 дня бесплатно всем желающим

Виртуальная АТС

Подключение и виртуальный

Интеллектуальное

Современное, универсальное и доступное решение для обеспечения безопасности

Завещание голубого дядюшки (1982) cкачать торрент или смотреть онлайн

Описание фильма Завещание голубого дядюшки

Три наследницы огромного состояния, для получения своей доли пирога, должны каждая вернуть на путь истинный по одному мужчине-гею и превратить его в своего любовника. В борьбу за деньги включаются также благотворительная монахиня, гей-адвокат и развратная женщина.

Скачать Завещание голубого дядюшки через торрент

У нас вы можете легко скачать Завещание голубого дядюшки через торрент бесплатно в хорошем качестве, оставляйте комментарии и делитесь впечатлениями!

Все рекомендуемые нами программы доступны на странице Скачать. На сайте Кино как То всегда все новые фильмы, доступные к скачиванию через торрент.

Установив программу KiloTorrent Player , вам больше не придется дожидаться окончания загрузки фильма, ведь вы сможете начать просмотр буквально через !

Завещание голубого дядюшки / Deu Veado na Cabeca (Бентинью - Жозе Родригес / Bentinho - J.B. Rodrigues) 1982, Бразилия, комедия, эротика, VHSRip VO (НТВ) Original Por

Стаж: 8 лет 3 месяца

Arle-kino ·, 03-Июн-16 15:50 (1 год 5 месяцев назад, ред. 10-Июн-16 20:40)

Жанр : комедия, эротика

Год выпуска : 1982

Перевод : Студийный (одноголосый закадровый) - НТВ

Оригинальная аудиодорожка : португальская

Режиссер : Бентинью AKA Жозе Родригес / Bentinho AKA J.B. Rodrigues

В ролях : Кармем Анжелика, Мара Кармем, Жука де Оливейра, Лижия ди Паула, Эмерсон Фиттипальди, Эйтор Джайлотти, Джон Херберт, Сержиу Хиншт, Фелипе Леви, Хосе Лукас.

Описание : Три наследницы огромного состояния, для получения своей доли пирога, должны каждая вернуть на путь истинный по одному мужчине-гею и превратить его в своего любовника. В борьбу за деньги включаются также монахиня, занимающаяся благотворительностью, адвокат, защищающий интересы сексуальных меньшинств и развратная женщина.

За предоставление русской озвучки огромная благодарность RockNIK

Сведение звука проведено Arle-kino

Качество видео : VHSRip

Формат видео : AVI

Видео : 672x464 (1.45:1), 29.970 fps, XviD Final 1.0.1 (build 35)

1619 kbps avg, 0.17 bit/pixel

Аудио 1 : 48 kHz, AC3 Dolby Digital, 2/0 (L,R) ch,

Аудио 2 : 48 kHz, MPEG Layer 3, 2 ch,

128.00 kbps avg - Port

Complete name : D:\Public\Deu Veado na Cabeca (1982)\Deu_Veado_na_Cabeca (1982, vhsrip, rus, port).avi

Format/Info : Audio Video Interleave

File size : 1.05 GiB

Duration : 1h 17mn

Overall bit rate : 1 958 Kbps

Writing application : VirtualDubMod 1.5.10.2 (build 2540/release)

Writing library : VirtualDubMod build 2540/release

Format : MPEG-4 Visual

Format settings, BVOP : 1

Format settings, QPel : No

Format settings, GMC : No warppoints

Format settings, Matrix : Default (MPEG)

Codec ID/Hint : XviD

Duration : 1h 17mn

Bit rate : 1 621 Kbps

Width : 672 pixels

Height : 464 pixels

Display aspect ratio : 1.448

Frame rate : 29.970 fps

Color space : YUV

Chroma subsampling : 4:2:0

Bit depth : 8 bits

Scan type : Progressive

Compression mode : Lossy

Stream size : 893 MiB (83)

Writing library : XviD 1.0.1 (UTC 2004-06-05)

Format/Info : Audio Coding 3

Mode extension : CM (complete main)

Duration : 1h 17mn

Bit rate mode : Constant

Bit rate : 192 Kbps

Channel(s) : 2 channels

Channel positions : Front: L R

Sampling rate : 48.0 KHz

Bit depth : 16 bits

Compression mode : Lossy

Stream size : 106 MiB (10)

Alignment : Split accross interleaves

Interleave, duration : 33 ms (1.00 video frame)

Interleave, preload duration : 500 ms

Format : MPEG Audio

Format version : Version 1

Format profile : Layer 3

Codec ID/Hint : MP3

Duration : 1h 17mn

Bit rate mode : Constant

Bit rate : 128 Kbps

Channel(s) : 2 channels

Sampling rate : 48.0 KHz

Compression mode : Lossy

Stream size : 70.5 MiB (7)

Alignment : Aligned on interleaves

Interleave, duration : 33 ms (1.00 video frame)

Interleave, preload duration : 504 ms

Writing library : LAME3.98r

Encoding settings : -m s -V 4 -q 2 -lowpass 17 -b 128

Стаж: 8 лет 3 месяца

Стаж: 7 лет 8 месяцев

Стаж: 8 лет 3 месяца

Стаж: 7 лет 8 месяцев

Стаж: 8 лет 3 месяца

вполне справедливый статус, о качестве видео тут лучше умолчать, просто другого нет

Стаж: 7 лет 2 месяца

Vonakuk LLirik ·, 30-Июл-16 07:41 (спустя 1 месяц 26 дней)

Стаж: 1 год 7 месяцев

Там были и Панков, Данилина, Золотницкий, Белявский, а уж сколько работал Герасимов.

Стаж: 8 лет 9 месяцев

Могу попробовать сделать видеорип в качестве алтернативы.

Завещание голубого дядюшки 1982

Фильм жанра комеди сделан в Бразилия в 1982г., режиссура: Бентинью. Главные роли исполнили Эмерсон Фиттипальди, Жука ди Оливейра, Джон Херберт и другие. Продолжительность фильма 1ч. 30мин. Продюсирование: Фернандо Сандовал

Трейлеры к фильму Завещание голубого дядюшки 1982 (Deu Veado na Cabea)
    Видеоматериалов по этому фильму пока нет.

Смотреть Завещание голубого дядюшки 1982 (Deu Veado na Cabea) в хорошем качестве HD Спойлеры к фильму Завещание голубого дядюшки

Вы можете запросить спойлер к фильму у нашей редакции. После Вашего запроса, мы постараемся оперативно разместить здесь нужную информацию

Оставить свою аудиорецензию к этому фильму Вы можете с помощью нашего

Свои отзывы, оценки, впечатления о фильме Вы можете оставить тут

Горячие новости Смотрите также

Что не так, в этом изображении?

Пожалуйста, опишите подробно причину, по которой Вы жалуетесь на это изображение, жалоба должна содержать конкретную информацию.

Спасибо, редакция сайта в ближайшее время рассмотрит Вашу информацию.

Понравилась статья? Поделить с друзьями: